Blue Crush (2002) BluRay 720p x264 [Dual Audio] [Hindi DD 5.1 – Eng] AAC Esub -=!Katyayan!=-

Poster

iMDB

Imdb Picture Title: Blue Crush
Year: 2002
Runtime: 104 minutes
Votes: 27009
Rating: 5.6/10
Language: English
Country: USA, Germany
All Genres: Drama, Romance, Sport
Plot Outline: As a hard-core surfer girl prepares for a big competition, she finds herself falling for a football player.
Tagline: You have to understand. They’re the most dangerous waves on the planet. Out here, you don’t just get crushed…you die.
Director: John Stockwell
Writing By: Susan Orlean,Lizzy Weiss,Lizzy Weiss,John Stockwell,
Produced By: Suzy Barbieri,Rick Dallago,Louis G. Friedman,Brian Grazer,Kathy Jones,Karen Kehela Sherwood,Buffy Shutt,
Music: Paul Haslinger
Plot:

Nothing gets between Anne Marie and her board. Living in a beach shack with three roommates including her rebellious younger sister, she is up before dawn every morning to conquer the waves and count the days until the Pipe Masters surf competition. Having transplanted herself to Hawaii with no one’s blessing but her own, Anne Marie finds all she needs in the adrenaline-charged surf scene … until pro quarterback Matt Tollman comes along. Like it or not, Anne Marie starts losing her balance – and finding it – as she falls for Matt.

Written by Schleppy

As a hard-core surfer girl prepares for a big competition, she finds herself falling for a football player.

Written by IMDb Editors
Cast:
Kate Bosworth as Anne Marie Chadwick
Matthew Davis as Matt Tollman
Michelle Rodriguez as Eden
Sanoe Lake as Lena
Mika Boorem as Penny Chadwick
Chris Taloa as Drew
Kala Alexander as Kala
Ruben Tejada as JJ
Kaupena Miranda as Kaupena
Asa Aquino as Asa

Details

Name:Blue Crush (2002) BluRay 720p x264 [Dual Audio] [Hindi DD 5.1 – Eng] AAC Esub -=!Katyayan!=-
Description:


Blue Crush (2002) BluRay 720p x264 [Dual Audio] [Hindi DD 5.1 – Eng] AAC Esub -=!Katyayan!=-

 

                 -=====================Source Credit=====================-
:::::::::::::::::::> Video —- Rarbg
     :::::::::::::::::::> Audio —  Hammer


Format                                   : Matroska
Format version                           : Version 4 / Version 2
File size                                : 992 MiB
Duration                                 : 1 h 44 min
Overall bit rate                         : 1 329 kb/s
Movie name                               : Blue Crush (2002) BluRay 720p x264 [Dual Audio] [Hindi DD 5.1 – Eng] AAC Esub -=!Katyayan!=-
Encoded date                             : UTC 2018-06-14 20:12:37
Writing application                      : mkvmerge v19.0.0 (‘Brave Captain’) 32-bit
Writing library                          : libebml v1.3.5 + libmatroska v1.4.8
Cover                                    : Yes
Attachments                              : Blue Crush (2002) Cover

Video
ID                                       : 1
Format                                   : AVC
Format/Info                              : Advanced Video Codec
Format profile                           : High@L3.1
Format settings                          : CABAC / 4 Ref Frames
Format settings, CABAC                   : Yes
Format settings, RefFrames               : 4 frames
Codec ID                                 : V_MPEG4/ISO/AVC
Duration                                 : 1 h 44 min
Bit rate                                 : 1 077 kb/s
Width                                    : 1 280 pixels
Height                                   : 694 pixels
Display aspect ratio                     : 1.85:1
Frame rate mode                          : Constant
Frame rate                               : 25.000 FPS
Color space                              : YUV
Chroma subsampling                       : 4:2:0
Bit depth                                : 8 bits
Scan type                                : Progressive
Bits/(Pixel*Frame)                       : 0.048
Stream size                              : 799 MiB (81%)
Title                                    : Blue Crush (2002) BluRay 720p x264 [Dual Audio] [Hindi DD 5.1 – Eng] AAC Esub -=!Katyayan!=-
Writing library                          : x264 core 148 r2643 5c65704
Language                                 : English
Default                                  : Yes
Forced                                   : No

Audio #1
ID                                       : 2
Format                                   : AAC
Format/Info                              : Advanced Audio Codec
Format profile                           : LC
Codec ID                                 : A_AAC-2
Duration                                 : 1 h 44 min
Bit rate                                 : 192 kb/s
Channel(s)                               : 6 channels
Channel positions                        : Front: L C R, Side: L R, LFE
Sampling rate                            : 48.0 kHz
Frame rate                               : 46.875 FPS (1024 SPF)
Compression mode                         : Lossy
Stream size                              : 143 MiB (14%)
Title                                    : -=!Katyayan!=-
Language                                 : Hindi
Default                                  : Yes
Forced                                   : Yes

Audio #2
ID                                       : 3
Format                                   : AAC
Format/Info                              : Advanced Audio Codec
Format profile                           : HE-AAC / LC
Format settings                          : Explicit
Codec ID                                 : A_AAC-2
Duration                                 : 1 h 44 min
Bit rate                                 : 64.0 kb/s
Channel(s)                               : 2 channels
Channel positions                        : Front: L R
Sampling rate                            : 48.0 kHz / 24.0 kHz
Frame rate                               : 23.438 FPS (1024 SPF)
Compression mode                         : Lossy
Delay relative to video                  : 31 ms
Stream size                              : 47.7 MiB (5%)
Title                                    : -=!Katyayan!=-
Language                                 : English
Default                                  : No
Forced                                   : No

Text
ID                                       : 4
Format                                   : UTF-8
Codec ID                                 : S_TEXT/UTF8
Codec ID/Info                            : UTF-8 Plain Text
Duration                                 : 1 h 38 min
Bit rate                                 : 74 b/s
Count of elements                        : 1270
Stream size                              : 53.3 KiB (0%)
Title                                    : -=!Katyayan!=-
Language                                 : English
Default                                  : Yes
Forced                                   : Yes

 
Category:Movies > Hollywood Dub
Lang:Hindi
Total Size:992.43 MB

|| Download This Movie Via Single Resumable Links Size: 992 MB ||

Direct-1 Google Drive | Direct-2 | Direct-3 |

Watch Online Click Here

Incoming search terms: