Hotel Transylvania 3 (2018) 720p HC HDRip – HQ Line Audios – [Hindi +Tamil + Eng] – x264 – 1GB

Poster

iMDB

Imdb Picture Title: Hotel Transylvania 3: Summer Vacation
Year: 2018
Runtime: 97 minutes
Votes: 2276
Rating: 6.4/10
Language: English
Country: USA
All Genres: Animation, Comedy, Family, Fantasy
Plot Outline: Mavis surprises Dracula with a family voyage on a luxury Monster Cruise Ship so he can take a vacation from providing everyone else’s vacation at the hotel. The rest of Drac’s Pack cannot resist going along. But once they leave port, romance arises when Dracula meets the mysterious ship Captain, Ericka. Now it’s Mavis’ turn to play the overprotective parent, keeping her dad and Ericka apart. Little do they know that his “too good to be true” love interest is actually a descendant of Abraham Van Helsing, ancient nemesis to Dracula and all other monsters.
Tagline: He’s going to need a vacation after this vacation.
Director: Genndy Tartakovsky
Writing By: Michael McCullers,Genndy Tartakovsky,Todd Durham,
Produced By: Michelle Murdocca,Carey Smith,
Music: Mark Mothersbaugh Tiësto
Cast:
Adam Sandler as Dracula
Andy Samberg as Johnny
Selena Gomez as Mavis
Kevin James as Frank
Fran Drescher as Eunice
Steve Buscemi as Wayne
Molly Shannon as Wanda
David Spade as Griffin
Keegan-Michael Key as Murray
Jim Gaffigan as Van Helsing
Trailers:
Sneak Peek
Trailer #2
Trailer #1

Details

Name:Hotel Transylvania 3 Summer Vacation (2018)720p HC HDRip – HQ Line Audios – [ Hindi +Tamil + En…
Description:

Hotel Transylvania 3: Summer Vacation (2018) 720p HDTS Dual Audio x264 [Hindi (Cleaned) + English]
34dee233e2221e690fdd396b9cdb9c16.jpg

Video
ID                          : 1
Format                      : AVC
Format/Info                 : Advanced Video Codec
Format profile              : High@L4.1
Format settings             : CABAC / 4 Ref Frames
Format settings, CABAC      : Yes
Format settings, ReFrames   : 4 frames
Codec ID                    : V_MPEG4/ISO/AVC
Duration                    : 1 h 32 min
Bit rate                    : 1 323 kb/s
Width                       : 1 280 pixels
Height                      : 720 pixels
Display aspect ratio        : 16:9
Frame rate mode             : Constant
Frame rate                  : 30.000 FPS
Color space                 : YUV
Chroma subsampling          : 4:2:0
Bit depth                   : 8 bits
Scan type                   : Progressive
Bits/(Pixel*Frame)          : 0.048
Stream size                 : 870 MiB (79%)

Audio #1
ID                          : 2
Format                      : MPEG Audio
Format version              : Version 1
Format profile              : Layer 3
Format settings             : Joint stereo
Codec ID                    : A_MPEG/L3
Codec ID/Hint               : MP3
Duration                    : 1 h 32 min
Bit rate mode               : Constant
Bit rate                    : 128 kb/s
Channel(s)                  : 2 channels
Sampling rate               : 48.0 kHz
Frame rate                  : 41.667 FPS (1152 SPF)
Compression mode            : Lossy
Stream size                 : 85.0 MiB (8%)
Writing library             : LAME3.99r
Encoding settings           : -m j -V 4 -q 3 -lowpass 17 -b 128
Language                    : Hindi
Default                     : No
Forced                      : No

Audio #2
ID                          : 3
Format                      : MPEG Audio
Format version              : Version 1
Format profile              : Layer 3
Format settings             : Joint stereo
Codec ID                    : A_MPEG/L3
Codec ID/Hint               : MP3
Duration                    : 1 h 32 min
Bit rate mode               : Constant
Bit rate                    : 128 kb/s
Channel(s)                  : 2 channels
Sampling rate               : 48.0 kHz
Frame rate                  : 41.667 FPS (1152 SPF)
Compression mode            : Lossy
Stream size                 : 85.0 MiB (8%)
Writing library             : LAME3.99r
Encoding settings           : -m j -V 4 -q 3 -lowpass 17 -b 128
Language                    : Tamil
Default                     : Yes
Forced                      : No

Audio #3
ID                          : 4
Format                      : MPEG Audio
Format version              : Version 1
Format profile              : Layer 3
Format settings             : Joint stereo
Codec ID                    : A_MPEG/L3
Codec ID/Hint               : MP3
Duration                    : 1 h 32 min
Bit rate mode               : Constant
Bit rate                    : 96.0 kb/s
Channel(s)                  : 2 channels
Sampling rate               : 48.0 kHz
Frame rate                  : 41.667 FPS (1152 SPF)
Compression mode            : Lossy
Stream size                 : 63.8 MiB (6%)
Writing library             : LAME3.99.5
Language                    : English
Default                     : No
Forced                      : No

c4e47160116e51c41eda550e1834b53e.th.jpg7629ebabc83ad21da0f21474ff89b994.th.jpg
3f2d9fa0911a757cc89d926a339158f2.th.jpg3b0ae06ab0cb2042f408c4d27228d698.th.jpg
282fbe1424e2210b6418ec6f64939377.th.jpg461a87065edbe78e412715770c13a682.th.jpg
6069dc68e8afe6456725c0e81a956d39.th.jpg82251083abc5b511ea2ec1db0cd5910e.th.jpg

Category:Movies > Hollywood Dub
Lang:Hindi
Total Size:1.08 GB

|| Download This Movie Via Single Resumable Links Size: 1.08 GB ||

Direct-1 Google Drive | Direct-2 | Direct-3 |

Watch Online Click Here

Incoming search terms: