Nawabzaade (2018) Hindi 720p AMZN-DL H264 AAC DD2.0 ~Team Crazy

Poster

iMDB

Imdb Picture Title: Nawabzaade
Year: 2018
Runtime: 112 minutes
Votes: 129
Rating: 7.2/10
Language: Hindi
Country: India
All Genres: Comedy, Romance
Plot Outline: Nawabzaade is a Hindi movie starring Raghav Juyal, Punit Pathak and Dharmesh Yelande in prominent roles. It is a romantic-comedy directed by Jayesh Pradhan, with Remo D’ Souza as the producer, forming a part of the crew.
Director: Jayesh Pradhan
Writing By: Pradeep Singh,
Produced By: Mayur K. Barot,Remo D’Souza,Lizelle Dsouza,Yogesh Singh,
Cast:
Dharmesh Yelande as
Punit Pathak as
Raghav Juyal as
Isha Rikhi as
Varun Dhawan as Special Appearance
Shraddha Kapoor as Special Appearance
Shakti Mohan as Dancer
Sanjeeda Sheikh as Dancer
Trailers:
Official ‘Nawabzaade’ Trailer

Details

Name:Nawabzaade (2018) Hindi 720p AMZN-DL H264 AAC DD2.0 ~Team Crazy
Description:

 Nawabzaade (2018) Hindi 720p AMZN-DL H264 AAC DD2.0 ~Team Crazy

Source :- NBT

Format                                   : MPEG-4
Format profile                           : Base Media
Codec ID                                 : isom (isom/iso2/avc1/mp41)
File size                                : 1.09 GiB
Duration                                 : 1 h 49 min
Overall bit rate                         : 1 424 kb/s
Writing application                      : Lavf58.12.100

Video
ID                                       : 1
Format                                   : AVC
Format/Info                              : Advanced Video Codec
Format profile                           : High@L3.1
Format settings                          : CABAC / 4 Ref Frames
Format settings, CABAC                   : Yes
Format settings, ReFrames                : 4 frames
Codec ID                                 : avc1
Codec ID/Info                            : Advanced Video Coding
Duration                                 : 1 h 49 min
Bit rate                                 : 1 294 kb/s
Width                                    : 1 280 pixels
Height                                   : 532 pixels
Display aspect ratio                     : 2.40:1
Original display aspect ratio            : 2.40:1
Frame rate mode                          : Constant
Frame rate                               : 25.000 FPS
Color space                              : YUV
Chroma subsampling                       : 4:2:0
Bit depth                                : 8 bits
Scan type                                : Progressive
Bits/(Pixel*Frame)                       : 0.076
Stream size                              : 1 015 MiB (91%)
Writing library                          : x264 core 148 r2643 5c65704

Audio
ID                                       : 2
Format                                   : AAC
Format/Info                              : Advanced Audio Codec
Format profile                           : LC
Codec ID                                 : mp4a-40-2
Duration                                 : 1 h 49 min
Duration_LastFrame                       : -10 ms
Bit rate mode                            : Constant
Bit rate                                 : 128 kb/s
Channel(s)                               : 2 channels
Channel(s)_Original                      : 1 channel
Channel positions                        : Front: C
Sampling rate                            : 44.1 kHz
Frame rate                               : 43.066 FPS (1024 SPF)
Compression mode                         : Lossy
Stream size                              : 101 MiB (9%)
Title                                    : Hindi
Language                                 : Hindi
Default                                  : Yes
Alternate group                          : 1

aedbcbd637d5f7a82ed57a0b63f0aa2f.jpg

Category:Movies > Bollywood
Lang:Hindi
Total Size:1.09 GB

|| Download This Movie Via Single Resumable Links Size: 1.09 GB ||

Direct-1 Google Drive | Direct-2 | Direct-3 |

Watch Online Click Here

Incoming search terms: